!!~ StRicTlY No RuLeS ~!!

Welcome To all Here You can Download Any Kind of Files With their Descripton
 
HomeRegisterLog in
OGT Welcomes You @ OGT Family Other Public Site Torrents With Widgets Should Be Allowed All Site Tags Should Be Allowed Its Like Only For Public Social Webmarks Free Ratio , Free Posting , No Banning Only @ OGT OGT ( ogtorrents )

Share | 
 

 Uyirodu Kalanthavalae Tamil Video Songs

View previous topic View next topic Go down 
AuthorMessage
mynanazeer

avatar

Posts : 30
Reputation : 0

PostSubject: Uyirodu Kalanthavalae Tamil Video Songs   Fri Mar 18, 2011 1:10 pm












Uyirodu Kalanthavalae Tamil Video Songs Collection_1 ~ Team OGT ~





Quote:


Complete name : Tamil Video Songs Collection_1 ~ Team MJY ~ MovieJockey.com
Format : AVI
Format/Info : Audio Video Interleave
File size : 49.4 MiB
Duration : 3mn 28s
Overall bit rate : 1 988 Kbps

Video
ID : 0
Format : MPEG-4 Visual
Format profile : Advanced Simple@L5
Format settings, BVOP : 2
Format settings, QPel : No
Format settings, GMC : No warppoints
Format settings, Matrix : Default (H.263)
Muxing mode : Packed bitstream
Codec ID : XVID
Codec ID/Hint : XviD
Duration : 3mn 28s
Bit rate : 1 529 Kbps
Width : 720 pixels
Height : 480 pixels
Display aspect ratio : 3:2
Frame rate : 29.970 fps
Original frame rate : 25.000 fps
Standard : NTSC
Color space : YUV
Chroma subsampling : 4:2:0
Bit depth : 8 bits
Scan type : Progressive
Compression mode : Lossy
Bits/(Pixel*Frame) : 0.148
Stream size : 38.0 MiB (77%)
Writing library : XviD 1.2.0.dev47 (UTC 2006-11-01)

Audio
ID : 1
Format : AC-3
Format/Info : Audio Coding 3
Mode extension : CM (complete main)
Codec ID : 2000
Duration : 3mn 28s
Bit rate mode : Constant
Bit rate : 448 Kbps
Channel(s) : 6 channels
Channel positions : Front: L C R, Side: L R, LFE
Sampling rate : 48.0 KHz
Bit depth : 16 bits
Compression mode : Lossy
Delay relative to video : 40ms
Stream size : 11.1 MiB (23%)
Alignment : Split accross interleaves
Interleave, duration : 998 ms (29.90 video frames)
Interleave, preload duration : 750 ms

























Tamil Video Songs Collection_1 ~ Team .torrent (14.4 KB, 56 views),

Back to top Go down
http://www.ogtrichy.blogspot.com
 
Uyirodu Kalanthavalae Tamil Video Songs
View previous topic View next topic Back to top 
Page 1 of 1
 Similar topics
-
» Old Motor Week Jon Moss T56 Impala SS road test video
» Woman Televangelist Arrested Naked In Heels(Video)
» Video of a family vacation to Laura sites
» Phantom US Tour Video Slideshow Project
» Lusty Latina Goes Loca for Gerry TMZ Video

Permissions in this forum:You cannot reply to topics in this forum
!!~ StRicTlY No RuLeS ~!! :: ::| Entertainments Zone |:: :: Vedio Songs-
Jump to: