!!~ StRicTlY No RuLeS ~!!

Welcome To all Here You can Download Any Kind of Files With their Descripton
 
HomeRegisterLog in
OGT Welcomes You @ OGT Family Other Public Site Torrents With Widgets Should Be Allowed All Site Tags Should Be Allowed Its Like Only For Public Social Webmarks Free Ratio , Free Posting , No Banning Only @ OGT OGT ( ogtorrents )

Share | 
 

 Discovery Channel Bermuda Triangular Exposed - HDTV

View previous topic View next topic Go down 
AuthorMessage
ThE SaGunI
!!~ OG Developer ~!!
avatar

Posts : 156
Reputation : 3
Age : 25

PostSubject: Discovery Channel Bermuda Triangular Exposed - HDTV   Wed Apr 27, 2011 12:48 am

discovery.channel.bermuda.triangle.exposed.hdtv.xv id.avi
Format : AVI
Format/Info : Audio Video Interleave
File size : 350 MiB
Duration : 43mn 33s
Overall bit rate : 1 123 Kbps

Video
Format : MPEG-4 Visual
Format profile : Advanced Simple@L5

Codec ID : XVID
Codec ID/Hint : XviD
Duration : 43mn 33s
Bit rate : 978 Kbps
Width : 624 pixels
Height : 352 pixels
Display aspect ratio : 16:9
Frame rate : 29.970 fps
Bit depth : 8 bits
Scan type : Progressive
Compression mode : Lossy
Bits/(Pixel*Frame) : 0.149
Stream size : 305 MiB (87%)
Writing library : XviD 1.2.1 (UTC 2008-12-04)

Audio
ID : 1
Format : MPEG Audio
Format version : Version 1
Format profile : Layer 3
Codec ID : 55
Codec ID/Hint : MP3
Duration : 43mn 33s
Bit rate mode : Variable
Bit rate : 128 Kbps
Channel(s) : 2 channels
Sampling rate : 48.0 KHz
Compression mode : Lossy
Stream size : 40.8 MiB (12%)

IF U LIKE PLS PLS REPLY OR HIT THANX

[You must be registered and logged in to see this link.]

Attached Files
[You must be registered and logged in to see this link.] (27.9 KB, 50 views), size: 349.94 mb, seeders: 6, leechers: 4, completed: 15

-----------------------------------------------------------------

Site Launched On
Sun Mar 06, 2011 9:29 pm

Back to top Go down
http://www.ogtrichy.blogspot.com
 
Discovery Channel Bermuda Triangular Exposed - HDTV
View previous topic View next topic Back to top 
Page 1 of 1
 Similar topics
-
» For all you wannabe bush pilots
» Rocknrolla movie chat on Scotsman Stuart's channel
» Right channel does not sound nearly as loud as the left
» No bias readings in st70 right channel
» Slender Nation Youtube Channel Ideas. NEED THEM

Permissions in this forum:You cannot reply to topics in this forum
!!~ StRicTlY No RuLeS ~!! :: ::| Other Release Torrents |:: :: TV Programmes, Trailers, Promo, Documentary Releases-
Jump to: